Перевал Дятлова (2020) WEBRip (сезон 1, серии 1-8 из 8 + Фильм о сериале) скачать торрент

Reply to topic

DL-List and Torrent activity [Update пиров]
Size:  5.58 GB   |    Registered:  14 hours   |    Completed:  0 times
Seeders:  5  [  2 MB/s  ]   Leechers:  3  [  2 MB/s  ]   Show peers in full details
 
 
 
 
Author Message

Moder ®

Longevity: 6 years 7 months

Posts: 2539

Location: Earth


Post 20-Nov-2020 18:48

[Quote]

Перевал Дятлова - Производство: Россия / 1 2 3 Продакшн
Жанр: триллер, детектив
Режиссер: Валерий Федорович, Евгений Никишов, Павел Костомаров
Актеры: Пётр Фёдоров, Мария Луговая, Андрей Добровольский, Иван Мулин, Александр Метелкин, Маша Мацель, Ирина Лукина, Максим Емельянов, Егор Бероев, Евгений Антропов и др.
Описание:
Зима 1959 года. Уральские горы. Группа из девяти студентов под руководством Игоря Дятлова отправилась в поход к заснеженным вершинам. Из этого путешествия живым не вернулся никто. Что произошло с туристами? Погибли под снежной лавиной, были убиты местными жителями или беглыми заключенными? Или же их смерть вызвана встречей со сверхъестественным? Это предстоит выяснить следственной группе под руководством майора Олега Костина. Отправившись на место происшествия, Костин понимает, что в этом деле слишком много деталей, которые не укладываются ни в одну из версий.

Возраст: 16+ (зрителям, достигшим 16 лет)
Дата российской премьеры: 16 ноября 2020
Продолжительность: ~00:56:00 серия
Качество видео: WEBRip
Внимание! Присутствует ненормативная лексика.
Видео: Xvid, 720x304, 720x400, ~1515 Kbps
Аудио: AC3, 2 ch, 192 Kbps

MediaInfo:

Общее
Формат : AVI
Формат/Информация : Audio Video Interleave
Размер файла : 701 Мбайт
Продолжительность : 57 м. 6 с.
Общий поток : 1 717 Кбит/сек
Программа кодирования : Lavf58.45.100
Видео
Идентификатор : 0
Формат : MPEG-4 Visual
Профиль формата : Advanced [email protected]
Настройки формата : BVOP2
Параметр BVOP формата : 2
Параметр QPel формата : Нет
Параметр GMC формата : Без точки перехода
Параметр матрицы формата : Default (MPEG)
Идентификатор кодека : XVID
Идентификатор кодека/Подсказка : XviD
Продолжительность : 57 м. 6 с.
Битрейт : 1 514 Кбит/сек
Ширина : 720 пикселей
Высота : 304 пикселя
Соотношение сторон : 2,35:1
Частота кадров : 25,000 кадров/сек
Цветовое пространство : YUV
Субдискретизация насыщенности : 4:2:0
Битовая глубина : 8 бит
Тип развёртки : Прогрессивная
Метод сжатия : С потерями
Бит/(Пиксели*Кадры) : 0.277
Размер потока : 618 Мбайт (88%)
Библиотека кодирования : XviD 69
Аудио
Идентификатор : 1
Формат : AC-3
Формат/Информация : Audio Coding 3
Коммерческое название : Dolby Digital
Идентификатор кодека : 2000
Продолжительность : 57 м. 6 с.
Вид битрейта : Постоянный
Битрейт : 192 Кбит/сек
Каналы : 2 канала
Channel layout : L R
Частота : 48,0 КГц
Частота кадров : 31,250 кадров/сек (1536 SPF)
Битовая глубина : 16 бит
Метод сжатия : С потерями
Размер потока : 78,4 Мбайт (11%)
Выравнивание : Соединение по промежуткам
Продолжительность промежутка : 32 мс. (0,80 видеокадр)
Service kind : Complete Main
-Скриншоты:


Смотреть онлайн

[trackeroc.org].32230.torrent  Магнет ссылка
Torrent: Registered   [ Yesterday 12:06 ]

Скачать торрент

29 KB

Status: checked
Completed: 53 times
Size: 5.58 GB
 

trackeroc.org (20-ноя-20), Admin (25-ноя-20)

Similar torrent
Forum Topic Author Size
Arcade, Аркады, Платформеры COCKHEAD [RUS + ENG + 27] (2020) trackeroc.org 1004 MB
Инди ,Sandbox (Linux) Factorio v1.1.1 (2020) [amd64] (ENG+RUS) _DD_ 3.01 GB
Strategy, Стратегии Good Company v0.8.4 (2020) (RUS/ENG) [в разработке] Admin 383 MB
RPG, ролевые игры Company of Crime [RUS / ENG] (2020) v1.0.5.1080-GOG trackeroc.org 7.83 GB
Arcade, Аркады, Платформеры Atomicrops [RUS/ENG] (2020) (1.2.0) Admin 268 MB

_________________
[Profile] [PM]
Display posts from previous:    
Reply to topic

The time now is: Today 02:28

All times are GMT + 4 Hours



You cannot post new topics in this forum
You cannot reply to topics in this forum
You cannot edit your posts in this forum
You cannot delete your posts in this forum
You cannot vote in polls in this forum
You cannot attach files in this forum
You can download files in this forum